Blindspot Sputnik 2020 The Rental 2020 Big Brother S22E03 agents of Made in Italy 2020 The Outpost 2020 Big Brother S22E04 HINDI khuda hafiz Abhay  The Secret Garden 2020 the fugitive Star Trek Lower Decks s01e02 Greyhound 2020 ted lasso Marvels Agents of S.H.I.E.L.D. S07E12 Khuda haafiz Sputnik Deathstroke Knights and Dragons - The Movie 2020 the 100 s07e11 marvel week Marvels.Agents.of.S.H.I.E.L.D etmovies ethd ddr supernatural  The Tax Collector 2020 Project Power 2020 greenland 2020 Tesla 2020 Yellowstone S03E08 etrg The Old Guard 2020 evo yts wwe Waiting for the Barbarians 2020 wentworth Hindi 2020 Black Water Abyss 2020 The Fugitive S01E01 Agents of S.H.I.E.L.D. peninsula 2020 Evo Marvels Agents of S.H.I.E.L.D. S07E13 An American Pickle 2020 greys anatomy abhay 2 Deep Blue Sea 3 2020 rq.mp4 star trek project power stargirl 2160p Knives Out 2019 Marvels Agents Unhinged 2020 yellowstone big bang theory español tesla The Real Housewives of Beverly Hills S10E14 THE 100 ettv agents xxx arrow español Double Shot at Love S02E10 Marvels Agents of S H I E L D s07e13 doom patrol Alone S07E10 
Warning! Use a VPN When Downloading Torrents!
Your IP Address is 3.228.220.31. Location United States
Your Internet Provider can see when you download torrents! Hide your IP Address with a VPN
ETTV warns: You should use VPN to hide your torrenting. HIDE ME NOW
ETTV Recommended TV Shows
The Lone Ranger 1949 Season 1 Complete DVDRip x264 [i c] torrent
Very.Scary.People.S02E08.The.Co-Ed.Killer.Pt2.1080p.HEVC.x265.MeGusta.ETRG torrent
Medici (2016) Season 1-3 S01-S03 (1080p BluRay x265 HEVC 10bit AAC 5.1 Silence) [QxR] torrent
One Championship No Surrender II 720p WEBRip h264-TJ [TJET] torrent
The New Legends of Monkey Season 2 Complete 720p NF WEBRip x264 [i c] torrent
Sheena, Queen Of The Jungle 2000 Season 1 Complete DVDRip x264 [i c] torrent
Spenser for Hire 1985 Season 1 Complete WEB x264 [i c] torrent
Black-ish.S04E00.Please.Baby.Please.720p.WEB.h264-TRUMP[ettv] torrent

ETTV Recommended SD
The.Bay.of.Silence.2020.HDRip.XviD.AC3-EVO[EtMovies] torrent
Before.the.Fire.2020.HDRip.XviD.AC3-EVO[EtMovies] torrent
The.Silencing.2020.V2.HDRip.XviD.AC3-EVO[EtMovies] torrent
Project.Power.2020.HDRip.XviD.AC3-EVO[EtMovies] torrent

ETTV Recommended HD
Cut.and.Chop.2020.1080p.WEB-DL.DD5.1.H.264-EVO[EtHD] torrent
Before.The.Fire.2020.1080p.WEB-DL.DD5.1.H264-CMRG[EtHD] torrent
The.Silencing.2020.1080p.WEB-DL.DD5.1.H.264-EVO[EtHD] torrent
The.Bay.of.Silence.2020.1080p.WEB-DL.H264.AC3-EVO[EtHD] torrent

ETTV Recommended UHD
Roger.Waters.Us.Them.2019.2160p.WEB-DL.x265-ROCCaT.Morpheus torrent
After.Earth.2013.2160p.HDR.WEB.DTS-HDMA.5.1.hevc-DDR.mkv torrent
Airplane.1980.2160p.HDR.WEBRip.DTS-HD.MA.5.1.HEVC-DDR.mkv torrent
Star.Wars.Caravan.of.Courage.An.Ewok.Adventure.1984.2160p.SDR.DD.5.1.HEVC-DDR.mkv torrent
Michelangelo.Infinito.2018.2160p.Blu-ray.2160p.HDR.DTS-HDMA.5.1.HEVC-DDR.mkv torrent
Point.Break.2015.UHD.BluRay.2160p.HDR.DTS-HD.MA.7.1.HEVC-DDR.mkv torrent

ETTV Recommended Cam
The Hunt 2020 HDCAM x264 AC3-ETRG torrent
The Burnt Orange Heresy 2020 720p HDCAM-C1NEM4 torrent

ETTV Recommended Foreign
Boogeyman 2 (2007) x265 720p HEVC 10Bit BluRay {Dual Audio} [Hindi ORG DD 2.0 + ENG 2.0] Exclusive By DREDD torrent
The Hidden Strike (2020) Hindi 1080p SM WEB-DL x264 AAC 2GB - MOVCR torrent
Project.Power.2020.1080p.NF.WEB-DL.HIN-Multi.DDP5.1.Atmos.x264-Telly torrent
Fearless.2020.1080p.NF.WEB-DL.HIn-Multi.DDP5.1.x264-Telly torrent
303 (2018) BluRay 720p x264 1GB-XpoZ torrent
Time Trap (2017) AC3 5.1 ITA.ENG 1080p H265 sub ita.eng Sp33dy94 MIRCrew torrent

ETTV Recommended Misc
Queen  - Innuendo - 1991 - MP3 - 320KBPS - G&U torrent
Biffy Clyro - A Celebration Of Endings (2020) [320 KBPS]  torrent
125 Tracks Rod Stewart ~Greatest Songs Playlist Spotify Mp3~ [320]  kbps Beats⭐ torrent
Khuda Haafiz (2020) Full Album Mp3-Flac-M4a [FPRG] torrent
The Official UK Top 40 Singles Chart (14-Aug-2020) Mp3 320kbps Songs [PMEDIA] ⭐️ torrent
[electronic] (2005) Brian Eno - Another Day On Earth [FLAC] [DarkAngie] torrent


Download Torrent "Red Snake-Soeurs d.armes (2018) ITA-ENG Ac3 5.1 BDRip 1080p H264 [ArMor]"

IMDB Details
Description:

N/A

Genre:

N/A

Download Torrent (Magnet)
Download Torrent (File)

Seeds: 72
Leechers: 30

Uploaded by:
ArMor


Category:
Movies > HD 1080p (Great for large screens)


Details
Title:Red Snake-Soeurs d.armes (2018) ITA-ENG Ac3 5.1 BDRip 1080p H264 [ArMor]
Description:




Regista: Caroline Fourest
Genere: Drammatico, Guerra
Anno: 2019
Paese: Francia, Italia, Belgio
Durata: 112 min
Distribuzione: Eagle Pictures

Plot: Sisters in Arms è un film di guerra alla guerra delle donne.

Sisters in Arms is a film of war on women's war.

 








General
Unique ID                                : 284701574331259910400094366943171705917 (0xD62F875A511EE9C0F3ABC6D66249FC3D)
Complete name                            : Red Snake-Soeurs d.armes (2018) ITA-ENG Ac3 5.1 BDRip 1080p H264 [ArMor].mkv
Format                                   : Matroska
Format version                           : Version 4
File size                                : 3.79 GiB
Duration                                 : 1 h 52 min
Overall bit rate                         : 4 821 kb/s
Encoded date                             : UTC 2020-08-01 06:36:21
Writing application                      : HandBrake 1.3.3 2020061300
Writing library                          : Lavf58.29.100
ErrorDetectionType                       : Per level 1

Video
ID                                       : 1
Format                                   : AVC
Format/Info                              : Advanced Video Codec
Format profile                           : [email protected]
Format settings                          : CABAC / 4 Ref Frames
Format settings, CABAC                   : Yes
Format settings, Reference frames        : 4 frames
Codec ID                                 : V_MPEG4/ISO/AVC
Duration                                 : 1 h 52 min
Bit rate                                 : 4 000 kb/s
Width                                    : 1 920 pixels
Height                                   : 804 pixels
Display aspect ratio                     : 2.40:1
Frame rate mode                          : Constant
Frame rate                               : 24.000 FPS
Color space                              : YUV
Chroma subsampling                       : 4:2:0
Bit depth                                : 8 bits
Scan type                                : Progressive
Bits/(Pixel*Frame)                       : 0.108
Stream size                              : 3.01 GiB (79%)
Writing library                          : x264 core 157 r2935 545de2f
Encoding settings                        : cabac=1 / ref=2 / deblock=1:0:0 / analyse=0x1:0x111 / me=hex / subme=6 / psy=1 / psy_rd=1.00:0.00 / mixed_ref=1 / me_range=16 / chroma_me=1 / trellis=1 / 8x8dct=0 / cqm=0 / deadzone=21,11 / fast_pskip=1 / chroma_qp_offset=-2 / threads=18 / lookahead_threads=3 / sliced_threads=0 / nr=0 / decimate=1 / interlaced=0 / bluray_compat=0 / constrained_intra=0 / bframes=3 / b_pyramid=2 / b_adapt=1 / b_bias=0 / direct=1 / weightb=1 / open_gop=0 / weightp=1 / keyint=240 / keyint_min=24 / scenecut=40 / intra_refresh=0 / rc_lookahead=30 / rc=abr / mbtree=1 / bitrate=4000 / ratetol=1.0 / qcomp=0.60 / qpmin=0 / qpmax=69 / qpstep=4 / vbv_maxrate=50000 / vbv_bufsize=62500 / nal_hrd=none / filler=0 / ip_ratio=1.40 / aq=1:1.00
Default                                  : Yes
Forced                                   : No
Color range                              : Limited
Color primaries                          : BT.709
Transfer characteristics                 : BT.709
Matrix coefficients                      : BT.709

Audio #1
ID                                       : 2
Format                                   : AC-3
Format/Info                              : Audio Coding 3
Commercial name                          : Dolby Digital
Codec ID                                 : A_AC3
Duration                                 : 1 h 52 min
Bit rate mode                            : Constant
Bit rate                                 : 448 kb/s
Channel(s)                               : 6 channels
Channel layout                           : L R C LFE Ls Rs
Sampling rate                            : 48.0 kHz
Frame rate                               : 31.250 FPS (1536 SPF)
Compression mode                         : Lossy
Stream size                              : 360 MiB (9%)
Title                                    : Surround
Language                                 : Italian
Service kind                             : Complete Main
Default                                  : Yes
Forced                                   : No

Audio #2
ID                                       : 3
Format                                   : AC-3
Format/Info                              : Audio Coding 3
Commercial name                          : Dolby Digital
Codec ID                                 : A_AC3
Duration                                 : 1 h 52 min
Bit rate mode                            : Constant
Bit rate                                 : 448 kb/s
Channel(s)                               : 6 channels
Channel layout                           : L R C LFE Ls Rs
Sampling rate                            : 48.0 kHz
Frame rate                               : 31.250 FPS (1536 SPF)
Compression mode                         : Lossy
Stream size                              : 360 MiB (9%)
Title                                    : Surround
Language                                 : English
Service kind                             : Complete Main
Default                                  : No
Forced                                   : No

Menu
00:00:00.000                             : :Chapter 1
00:10:46.792                             : :Chapter 2
00:18:42.500                             : :Chapter 3
00:28:28.583                             : :Chapter 4
00:38:20.042                             : :Chapter 5
00:46:43.333                             : :Chapter 6
00:57:54.167                             : :Chapter 7
01:05:49.375                             : :Chapter 8
01:15:13.167                             : :Chapter 9
01:23:17.708                             : :Chapter 10
01:34:34.708                             : :Chapter 11
01:42:21.708                             : :Chapter 12


Category:Movies > HD 1080p
Lang:Italian  Italian
Total Size:3.84 GB
Info Hash:ef6773159e2dfb262a2d60f20eba4c916e5f9657
Added By:ArMor
Date Added:01-08-2020 23:25:07

  

Files

File List: 
 File Size
Red Snake-Soeurs d.armes (2018) ITA-ENG Ac3 5.1 BDRip 1080p H264 [ArMor].mkv3.79 GB
Red.Snake.2019.Bd_track2_ita.sup18 MB
Red.Snake.2019.Bd_track3_ita.sup38 MB
sdtrewui5i.jpg131.31 kB



Comments

There are currently no comments. Be the first one to write something !